<?xml version="1.0" standalone="no"?>
<!DOCTYPE svg PUBLIC "-//W3C//DTD SVG 1.1//EN" "http://www.w3.org/Graphics/SVG/1.1/DTD/svg11.dtd" >
<svg xmlns="http://www.w3.org/2000/svg">
<metadata>Generated by IcoMoon</metadata>
<defs>
<font id="ispconfig" horiz-adv-x="1024">
<font-face units-per-em="1024" ascent="960" descent="-64" />
<missing-glyph horiz-adv-x="1024" />
<glyph unicode="&#x20;" d="" horiz-adv-x="512" />
<glyph unicode="&#xe600;" d="M870.002 657.426h-0.011c0-0.072 0.007-0.144 0.007-0.217 0.029 19.966-11.35 38.043-31.219 49.588l-274.318 159.417c-14.32 8.319-32.649 12.904-51.611 12.904-18.926 0-37.259-4.566-51.615-12.857l-276.106-159.413c-20.009-11.549-31.504-29.658-31.529-49.675 0-0.083 0.007-0.166 0.007-0.246 0 0.007 0 0.014 0 0.022h-0.011v-0.025l0.397-89.307c0.058-19.883 11.441-37.876 31.226-49.371l274.314-159.417c14.32-8.323 32.646-12.904 51.607-12.904 18.926 0 37.259 4.566 51.615 12.857l276.11 159.413c20.096 11.596 31.591 29.785 31.533 49.899l-0.397 89.332zM207.585 668.194l276.106 159.413c7.528 4.346 18.156 6.838 29.163 6.838 10.996 0 21.584-2.485 29.048-6.824l274.314-159.413c2.673-1.553 8.89-5.704 8.883-10.7-0.007-5.068-6.351-9.277-9.078-10.852l-276.113-159.41c-7.528-4.349-18.153-6.842-29.163-6.842-10.996 0-21.584 2.489-29.044 6.824l-274.314 159.413c-2.673 1.553-8.887 5.704-8.879 10.704 0.007 5.065 6.347 9.273 9.078 10.848zM806.874 549.081l-47.894-27.65c-10.216-5.899-18.51-1.174-18.546 10.566-0.033 11.74 8.207 26.042 18.427 31.941l47.894 27.65c10.191 5.885 18.51 1.145 18.543-10.595 0.036-11.74-8.226-26.031-18.423-31.912zM868.835 507.737c-3.248-15.862-13.839-29.904-30.363-39.441l-276.11-159.413c-14.359-8.291-32.693-12.853-51.618-12.853-18.962 0-37.288 4.581-51.607 12.9l-274.314 159.417c-16.411 9.537-26.909 23.557-30.092 39.39h-1.105l0.368-129.929c0.058-19.883 11.441-37.88 31.226-49.375l274.314-159.413c14.32-8.319 32.646-12.904 51.607-12.904 18.926 0 37.259 4.57 51.615 12.86l276.11 159.41c20.096 11.6 31.591 29.788 31.533 49.899l-0.368 129.455h-1.196zM806.874 359.475l-47.894-27.646c-10.216-5.903-18.51-1.174-18.546 10.566-0.033 11.74 8.207 26.042 18.427 31.941l47.894 27.65c10.191 5.885 18.51 1.142 18.543-10.599 0.036-11.74-8.226-26.028-18.423-31.912z" />
<glyph unicode="&#xe601;" d="M870.002 708h-0.011c0-0.072 0.007-0.144 0.007-0.217 0.029 19.966-11.35 38.043-31.219 49.588l-274.318 159.417c-14.32 8.319-32.649 12.904-51.611 12.904-18.926 0-37.259-4.566-51.615-12.857l-276.106-159.413c-20.009-11.549-31.504-29.658-31.529-49.675 0-0.083 0.007-0.166 0.007-0.246 0 0.007 0 0.014 0 0.022h-0.011v-0.025l0.397-139.881c0.058-19.883 11.441-37.876 31.226-49.371l274.314-159.417c14.32-8.323 32.646-12.904 51.607-12.904 18.926 0 37.259 4.566 51.615 12.857l276.11 159.413c20.096 11.596 31.591 29.785 31.533 49.899l-0.397 139.906zM207.585 718.769l276.106 159.413c7.528 4.346 18.156 6.838 29.163 6.838 10.996 0 21.584-2.485 29.048-6.824l274.314-159.413c2.673-1.553 8.89-5.704 8.883-10.7-0.007-5.068-6.351-9.277-9.078-10.852l-276.113-159.41c-7.528-4.349-18.153-6.842-29.163-6.842-10.996 0-21.584 2.489-29.044 6.824l-274.314 159.413c-2.673 1.553-8.887 5.704-8.879 10.704 0.007 5.065 6.347 9.273 9.078 10.848zM806.874 549.081l-47.894-27.65c-10.216-5.899-18.51-1.174-18.546 10.566-0.033 11.74 8.207 26.042 18.427 31.941l47.894 27.65c10.191 5.885 18.51 1.145 18.543-10.595 0.036-11.74-8.226-26.031-18.423-31.912zM868.835 507.737c-3.248-15.862-13.839-29.904-30.363-39.441l-276.11-159.413c-14.359-8.291-32.693-12.853-51.618-12.853-18.962 0-37.288 4.581-51.607 12.9l-274.314 159.417c-16.411 9.537-26.909 23.557-30.092 39.39h-1.105l0.368-129.929c0.058-19.883 11.441-37.88 31.226-49.375l274.314-159.413c14.32-8.319 32.646-12.904 51.607-12.904 18.926 0 37.259 4.57 51.615 12.86l276.11 159.41c20.096 11.6 31.591 29.788 31.533 49.899l-0.368 129.455h-1.196zM806.874 359.475l-47.894-27.646c-10.216-5.903-18.51-1.174-18.546 10.566-0.033 11.74 8.207 26.042 18.427 31.941l47.894 27.65c10.191 5.885 18.51 1.142 18.543-10.599 0.036-11.74-8.226-26.028-18.423-31.912zM868.835 317.932c-3.248-15.866-13.839-29.904-30.363-39.441l-276.11-159.413c-14.359-8.291-32.693-12.857-51.618-12.857-18.962 0-37.288 4.584-51.607 12.9l-274.314 159.417c-16.411 9.537-26.909 23.557-30.092 39.39h-1.105l0.368-129.929c0.058-19.886 11.441-37.88 31.226-49.378l274.314-159.413c14.32-8.319 32.646-12.9 51.607-12.9 18.926 0 37.259 4.566 51.615 12.857l276.11 159.41c20.096 11.6 31.591 29.788 31.533 49.899l-0.368 129.455h-1.196zM806.874 169.671l-47.894-27.65c-10.216-5.899-18.51-1.174-18.546 10.566-0.033 11.74 8.207 26.042 18.427 31.941l47.894 27.65c10.191 5.885 18.51 1.145 18.543-10.595 0.036-11.74-8.226-26.028-18.423-31.912z" />
<glyph unicode="&#xe602;" d="M487.7 322.627l-0.050 0.055-0.050 0.057c-7.086 8.232-10.633 19.694-11.166 36.524-11.119 0.523-22.685 2.996-30.735 12.399l-0.057 0.066-0.055 0.066c-10.811 12.798-17.088 20.39-17.35 20.706l-0.050 0.060-0.047 0.060c-5.141 6.295-10.407 16.507-12.375 29.049l-177.599-177.609c-26.806-26.773-26.806-70.176 0-96.903 26.763-26.806 70.139-26.806 96.903 0l163.292 163.275c-3.521 4.014-7.067 8.069-10.661 12.194zM291.744 169.503c-11.467-4.292-24.318 1.518-28.619 13.112-4.359 11.485 1.526 24.278 13.062 28.637 11.534 4.351 24.318-1.516 28.61-13.060 4.369-11.546-1.518-24.345-13.053-28.689zM893.102 705.806l-77.82-77.829-75.948 20.38-20.346 75.89 77.819 77.829c-49.555 15.102-105.613 3.070-144.832-36.139-17.564-17.574-28.39-37.261-33.316-57.769-6.222-23.45-3.768-50.452 6.771-76.809l-83.823-83.829c12.119-1.879 21.019-6.707 25.801-9.909 0.062-0.041 0.126-0.084 0.188-0.124 0.313-0.212 0.602-0.41 0.877-0.606 0.123-0.087 0.242-0.168 0.355-0.252 0.217-0.156 0.424-0.306 0.614-0.447 0.162-0.118 0.298-0.222 0.437-0.328 0.124-0.096 0.259-0.195 0.367-0.281 0.238-0.187 0.444-0.352 0.612-0.488 0.321-0.264 8.045-6.618 20.76-17.395 9.155-7.73 12.022-18.913 12.599-30.86 16.746-0.554 28.075-4.075 36.331-11.206l0.074-0.064c2.637-2.296 5.239-4.567 7.826-6.829 1.47-1.285 2.936-2.567 4.393-3.844l69.524 69.518c26.056-10.388 52.788-12.919 76.067-6.973 20.785 4.857 40.743 15.759 58.554 33.543 39.175 39.2 51.201 95.258 36.116 144.823zM623.139 455.476c-9.751 8.424-47.058 3.215-47.058 3.215s4.546 33.452-1.647 38.66c-12.728 10.789-20.486 17.165-20.486 17.165s-27.31 22.724-62.735-12.702l-189.994 189.888c-10.496 10.523-1.417 53.32-1.417 53.32l-114.806 72.665-40.619-40.646 72.664-114.835c0 0 42.826 9.079 53.347-1.39l190.181-190.206c-33.978-33.978-11.798-61.141-11.798-61.141s6.324-7.653 17.165-20.488c5.208-6.083 38.66-1.646 38.66-1.646s-5.208-37.466 3.189-47.218c70.867-81.363 184.034-205.504 215.894-205.504 23.704 0 45.268 10.938 69.9 35.306 24.577 24.366 35.118 46.223 35.118 69.659 0.027 31.939-124.141 145.054-205.557 215.894z" />
<glyph unicode="&#xe603;" d="M892.551 496.835c-1.456 10.841-11.585 20.197-22.498 20.797l-48.273 2.637c-10.913 0.596-22.672 9.573-26.129 19.944l-17.835 43.165c-4.917 9.768-2.962 24.413 4.324 32.544l32.241 35.984c7.301 8.15 7.521 21.667 0.517 30.052l-68.929 68.936c-8.392 7.015-21.924 6.781-30.074-0.509l-35.962-32.241c-8.128-7.308-22.798-9.248-32.544-4.31l-43.183 17.824c-10.353 3.457-19.334 15.216-19.937 26.125l-2.633 48.262c-0.603 10.92-9.949 21.050-20.797 22.513 0 0-25.435 3.443-48.869 3.443-23.394 0-48.829-3.443-48.829-3.443-10.841-1.47-20.194-11.6-20.79-22.513l-2.644-48.262c-0.592-10.917-9.573-22.668-19.952-26.125l-43.151-17.824c-9.768-4.938-24.42-2.991-32.544 4.31l-35.987 32.241c-8.15 7.29-21.657 7.525-30.048 0.509l-68.933-68.936c-7.015-8.392-6.781-21.909 0.517-30.052l32.241-35.984c7.297-8.142 9.244-22.784 4.31-32.544l-17.824-43.165c-3.457-10.371-15.223-19.348-26.125-19.944l-48.259-2.637c-10.917-0.6-21.046-9.949-22.516-20.797 0 0-3.435-25.446-3.435-48.833 0-23.391 3.443-48.811 3.443-48.811 1.47-10.863 11.6-20.197 22.516-20.797l48.251-2.652c10.92-0.589 22.668-9.584 26.132-19.941l17.817-43.154c4.935-9.761 2.98-24.42-4.31-32.563l-32.241-35.965c-7.297-8.153-7.532-21.675-0.517-30.077l68.94-68.933c8.392-7.012 21.906-6.777 30.048 0.513l35.98 32.245c8.142 7.294 22.784 9.248 32.544 4.324l43.151-17.835c10.379-3.45 19.359-15.219 19.944-26.147l2.644-48.248c0.592-10.91 9.949-21.053 20.79-22.524 0 0 25.435-3.435 48.837-3.435 23.434 0 48.884 3.435 48.884 3.435 10.834 1.47 20.179 11.618 20.782 22.524l2.633 48.248c0.603 10.92 9.58 22.69 19.952 26.147l43.151 17.835c9.761 4.92 24.416 2.966 32.559-4.324l35.962-32.245c8.15-7.297 21.675-7.539 30.059-0.524l68.943 68.943c7.005 8.395 6.773 21.924-0.517 30.077l-32.241 35.965c-7.29 8.142-9.244 22.802-4.324 32.563l17.835 43.154c3.45 10.353 15.219 19.348 26.129 19.941l48.273 2.652c10.913 0.6 21.057 9.941 22.498 20.797 0 0 3.45 25.421 3.45 48.811 0.004 23.387-3.446 48.833-3.446 48.833zM511.977 350.488c-53.858 0-97.518 43.689-97.518 97.518 0 53.854 43.66 97.518 97.518 97.518 53.89 0 97.572-43.664 97.572-97.518-0.011-53.829-43.689-97.518-97.572-97.518z" />
<glyph unicode="&#xe604;" d="M745.567 453.638h-315.742c-3.746 0-6.78-3.034-6.78-6.78v-27.034c0-3.742 3.034-6.78 6.78-6.78h315.742c3.746 0 6.78 3.038 6.78 6.78v27.034c0 3.746-3.034 6.78-6.78 6.78zM744.73 535.948h-315.742c-3.746 0-6.78-3.034-6.78-6.78v-27.034c0-3.746 3.034-6.78 6.78-6.78h315.742c3.742 0 6.78 3.034 6.78 6.78v27.034c0 3.746-3.038 6.78-6.78 6.78zM744.73 292.098h-497.459c-3.742 0-6.78-3.034-6.78-6.78v-27.034c0-3.746 3.038-6.78 6.78-6.78h497.459c3.742 0 6.78 3.034 6.78 6.78v27.034c0 3.749-3.038 6.78-6.78 6.78zM744.73 210.629h-497.459c-3.742 0-6.78-3.034-6.78-6.78v-27.034c0-3.746 3.038-6.78 6.78-6.78h497.459c3.742 0 6.78 3.034 6.78 6.78v27.034c0 3.749-3.038 6.78-6.78 6.78zM247.27 413.885h128.050c3.746 0 6.78 3.034 6.78 6.78v108.503c0 3.746-3.034 6.78-6.78 6.78h-128.050c-3.746 0-6.78-3.034-6.78-6.78v-108.499c0-3.749 3.034-6.783 6.78-6.783zM744.73 373.291h-497.459c-3.742 0-6.78-3.034-6.78-6.78v-27.034c0-3.746 3.038-6.78 6.78-6.78h497.459c3.742 0 6.78 3.034 6.78 6.78v27.034c0 3.746-3.038 6.78-6.78 6.78zM247.27 596.558h497.459c3.742 0 6.78 3.034 6.78 6.78v67.346c0 3.746-3.038 6.78-6.78 6.78h-497.459c-3.746 0-6.78-3.034-6.78-6.78v-67.346c0-3.746 3.034-6.78 6.78-6.78zM794.565 867.075h-597.131c-36.42 0-66.054-29.633-66.054-66.054v-674.041c0-36.424 29.633-66.054 66.054-66.054h597.131c36.42 0 66.054 29.63 66.054 66.054v674.041c0 36.42-29.633 66.054-66.054 66.054zM699.562 825.935c14.198 0 25.708-11.51 25.708-25.708 0-14.202-11.51-25.712-25.708-25.712s-25.712 11.51-25.712 25.712c0 14.198 11.517 25.708 25.712 25.708zM806.465 126.98c0-6.566-5.34-11.9-11.9-11.9h-597.131c-6.56 0-11.9 5.332-11.9 11.9v605.445h620.93v-605.445zM780.753 774.515c-14.198 0-25.712 11.51-25.712 25.712 0 14.198 11.514 25.708 25.712 25.708s25.712-11.51 25.712-25.708c0-14.202-11.514-25.712-25.712-25.712z" />
<glyph unicode="&#xe605;" d="M641.851 941.938h-259.702c-32.602 0-59.125-26.523-59.125-59.125v-776.19c0-32.599 26.523-59.121 59.121-59.121h45.448v-93.439h168.806v93.439h45.448c32.599 0 59.118 26.523 59.118 59.121v776.19c0.004 32.602-26.515 59.125-59.114 59.125zM420.434 846.736c24.456 24.456 56.975 37.927 91.564 37.927s67.108-13.471 91.564-37.927c44.155-44.155 50.527-113.499 15.158-164.886-5.256-7.633-13.727-11.737-22.343-11.737-5.299 0-10.646 1.55-15.338 4.783-12.326 8.482-15.44 25.348-6.958 37.674 20.551 29.864 16.838 70.172-8.832 95.849-14.226 14.222-33.137 22.058-53.251 22.058s-39.025-7.832-53.251-22.058c-25.674-25.674-29.387-65.985-8.836-95.849 8.482-12.326 5.368-29.196-6.958-37.674-12.318-8.496-29.192-5.372-37.678 6.954-35.369 51.391-28.99 120.728 15.158 164.886zM618.72 156.651c-5.256-7.637-13.727-11.737-22.343-11.737-5.299 0-10.646 1.546-15.338 4.779-12.326 8.482-15.44 25.348-6.958 37.678 20.551 29.864 16.838 70.168-8.832 95.849-29.358 29.351-77.136 29.358-106.502-0.004-25.674-25.674-29.387-65.985-8.836-95.845 8.482-12.329 5.368-29.199-6.958-37.678-12.318-8.496-29.192-5.368-37.678 6.958-35.369 51.391-28.993 120.731 15.158 164.886 50.491 50.484 132.645 50.48 183.129 0 44.155-44.155 50.527-113.499 15.158-164.886zM618.72 419.25c-5.256-7.633-13.727-11.737-22.343-11.737-5.299 0-10.646 1.55-15.338 4.779-12.326 8.486-15.44 25.352-6.958 37.678 20.555 29.864 16.838 70.175-8.832 95.845-14.226 14.229-33.137 22.061-53.251 22.061s-39.025-7.832-53.251-22.058c-25.674-25.674-29.391-65.985-8.836-95.849 8.482-12.326 5.368-29.196-6.958-37.678-12.318-8.496-29.192-5.368-37.678 6.958-35.369 51.391-28.997 120.735 15.158 164.886 24.456 24.456 56.975 37.927 91.564 37.927s67.108-13.471 91.564-37.931c44.158-44.155 50.527-113.496 15.158-164.883z" />
<glyph unicode="&#xe606;" d="M821.185 500.876l-291.231 225.083c-5.286 4.086-11.617 6.129-17.95 6.129-6.331 0-12.663-2.044-17.95-6.129l-291.231-225.083c-7.192-5.558-11.403-14.134-11.403-23.227v-357.378c0-16.211 13.142-29.354 29.354-29.354h121.352v223.318c0 16.211 13.142 29.354 29.354 29.354h140.523c16.212 0 29.354-13.143 29.354-29.354v-223.316h261.877c16.211 0 29.353 13.143 29.353 29.354l0.002 356.663v0.715c0 9.091-4.213 17.667-11.401 23.226zM920.754 503.798l-372.655 288.013c-18.015 17.844-46.897 20.041-67.511 4.109l-377.338-291.636c-22.449-17.348-26.582-49.611-9.233-72.059 10.122-13.096 25.319-19.957 40.683-19.957 10.97 0 22.026 3.499 31.377 10.727l345.609 267.112 346.241-267.602c9.351-7.229 20.406-10.725 31.378-10.725 15.361 0 30.56 6.862 40.683 19.957 17.348 22.449 13.216 54.71-9.231 72.060z" />
<glyph unicode="&#xe607;" d="M864.796 625.864c-19.994 47.276-48.62 89.736-85.082 126.195-36.458 36.46-78.917 65.085-126.195 85.082-48.952 20.705-100.946 31.203-154.54 31.203s-105.59-10.498-154.54-31.203c-47.277-19.996-89.736-48.621-126.195-85.082-36.46-36.458-65.085-78.917-85.082-126.195-19.759-46.715-30.2-96.205-31.115-147.209h-0.089v-7.276c0-0.019-0.002-0.036-0.002-0.056v-7.332h0.092c0.915-51.003 11.354-100.493 31.113-147.209 19.047-45.030 45.941-85.682 79.957-120.947l-0.061-0.062 5.175-5.175c0.003-0.003 0.007-0.005 0.009-0.009l5.185-5.185 0.061 0.062c35.269-34.020 75.916-60.911 120.952-79.959 48.95-20.705 100.946-31.203 154.54-31.203s105.59 10.499 154.54 31.201c47.277 19.997 89.736 48.621 126.195 85.082 36.461 36.46 65.087 78.919 85.082 126.197 20.707 48.952 31.203 100.946 31.203 154.54 0.002 53.593-10.496 105.587-31.203 154.538zM748.61 720.951v0l-85.931-85.929c-43.726 43.726-101.863 67.806-163.699 67.806v121.525c47.676 0 93.903-9.327 137.404-27.727 42.035-17.778 79.79-43.238 112.226-75.673zM631.573 338.732l-0.275-0.275c-35.386-35.244-82.359-54.647-132.318-54.647-50.086 0-97.176 19.507-132.59 54.922-35.417 35.415-54.922 82.504-54.922 132.59 0 50.077 19.497 97.157 54.902 132.572l0.019 0.019c35.417 35.417 82.506 54.922 132.593 54.922s97.174-19.505 132.59-54.922c35.415-35.415 54.922-82.504 54.922-132.59s-19.507-97.174-54.92-132.59zM145.951 473.29l0.081 4.576c0.815 45.388 10.116 89.416 27.647 130.862 17.778 42.035 43.238 79.791 75.671 112.226l85.931-85.931c-0.007-0.009-0.015-0.015-0.024-0.024-43.711-43.724-67.783-101.851-67.782-163.674l-121.525 0.056v1.912zM361.576 146.021c-39.977 16.909-76.161 40.831-107.547 71.105l-2.879 2.769-1.3 1.301-0.484 0.514 85.916 85.914c43.726-43.724 101.861-67.804 163.699-67.804v-121.525c-47.676 0-93.906 9.327-137.404 27.727zM824.282 333.92c-17.778-42.037-43.238-79.794-75.673-112.228l-85.929 85.931c43.726 43.726 67.806 101.863 67.806 163.699h121.525c0-47.674-9.327-93.903-27.727-137.403z" />
<glyph unicode="&#xe608;" d="M512.003 880.726l-383.463-301.891v-479.328h766.925v479.328l-383.463 301.891zM512.003 820.466l335.668-264.262-220.568-173.094c-0.292-0.147-0.58-0.292-0.876-0.451-4.764-2.705-10.484-5.404-17.149-8.102-6.671-2.699-14.293-5.122-22.87-7.265-2.934-0.735-5.993-1.417-9.16-2.056l-65.044 51.045-56.295-44.182c-15.928 6.341-29.88 15.177-41.852 26.521-13.578 12.863-24.221 28.902-31.922 48.119-7.704 19.217-11.555 41.528-11.555 66.939 0 20.167 3.455 39.107 10.364 56.817 6.907 17.706 16.555 33.191 28.943 46.453 12.387 13.259 27.157 23.702 44.307 31.326s35.971 11.436 56.458 11.436c18.738 0 35.772-2.621 51.099-7.863 15.322-5.241 28.426-12.946 39.308-23.107 10.876-10.166 19.254-22.75 25.131-37.757 5.874-15.006 8.813-32.361 8.813-52.052 0-11.436-1.077-21.998-3.215-31.683-2.146-9.689-5.046-18.104-8.695-25.25-3.656-7.147-7.982-12.746-12.984-16.795s-10.362-6.075-16.081-6.075c-6.038 0-10.839 1.509-14.411 4.527-3.575 3.015-5.361 8.495-5.361 16.437 0 5.557 1.191 13.020 3.574 22.393l23.347 90.283c-4.609 1.907-9.092 3.611-13.459 5.122-4.37 1.509-9.015 2.739-13.938 3.692-4.926 0.953-10.243 1.708-15.963 2.264-5.716 0.554-12.069 0.832-19.058 0.832-14.769 0-28.228-1.666-40.375-5.001-12.15-3.336-22.988-7.825-32.517-13.46-9.529-5.637-17.83-12.309-24.895-20.008-7.068-7.706-12.903-15.884-17.508-24.537-4.609-8.658-8.062-17.669-10.362-27.039-2.303-9.372-3.455-18.58-3.455-27.633 0-10.327 1.311-19.853 3.931-28.586 2.62-8.735 6.551-16.281 11.793-22.631 5.241-6.354 11.75-11.316 19.534-14.888 7.778-3.575 16.831-5.359 27.157-5.359 11.911 0 23.025 2.219 33.351 6.671 10.321 4.442 20.248 11.911 29.775 22.392 2.063-5.4 4.805-9.966 8.218-13.698s7.227-6.751 11.436-9.050c4.206-2.303 8.695-3.97 13.459-5.002 4.764-1.033 9.686-1.548 14.769-1.548 15.086 0 29.023 3.253 41.81 9.766 12.785 6.51 23.822 15.366 33.112 26.562s16.517 24.298 21.679 39.306c5.159 15.006 7.741 31.006 7.741 48.003 0 16.831-2.223 32.672-6.671 47.524-4.449 14.847-10.641 28.427-18.583 40.735s-17.431 23.303-28.467 32.993c-11.041 9.686-23.107 17.867-36.207 24.537-13.105 6.671-27.003 11.75-41.69 15.247-14.693 3.49-29.74 5.241-45.141 5.241-18.424 0-35.971-2.385-52.648-7.147-16.675-4.764-32.159-11.476-46.453-20.129-14.293-8.658-27.239-18.938-38.831-30.85-11.593-11.911-21.518-24.934-29.775-39.069-8.26-14.138-14.614-29.223-19.061-45.261-4.447-16.042-6.671-32.398-6.671-49.075 0-28.862 4.599-55.087 13.774-78.684l-154.454 121.211 335.66 264.26zM848.121 496.371v-343.147l-219.087 171.212 219.087 171.934zM175.889 496.371l219.090-171.934-219.090-171.212v343.147zM537.609 559.654l-16.677-65.035c-1.59-6.354-3.614-11.671-6.075-15.96-2.465-4.288-5.205-7.741-8.218-10.362-3.016-2.62-6.234-4.49-9.649-5.596-3.415-1.115-6.869-1.67-10.362-1.67-6.513 0-11.553 2.301-15.126 6.909-3.574 4.604-5.359 11.59-5.359 20.963 0 9.686 1.625 18.858 4.883 27.516 3.253 8.654 7.624 16.234 13.101 22.75 5.48 6.51 11.871 11.673 19.178 15.484 7.302 3.812 14.926 5.716 22.869 5.716 3.814 0 7.624-0.237 11.436-0.714zM244.631 146.853l267.373 209.239 266.623-209.239h-533.997z" />
<glyph unicode="&#xe609;" d="M353.033 380.651l96.282 158.012c-21.722 7.991-41.402 20.024-58.558 35.803l-102.145-167.635c23.156-4.378 44.801-13.171 64.421-26.179zM797.338 368.416c-74.525 0-135.156-60.631-135.156-135.156 0-74.521 60.631-135.152 135.156-135.152s135.156 60.631 135.156 135.152c0 74.525-60.631 135.156-135.156 135.156zM489.648 694.822l196.322-322.186c17.199 13.778 36.475 24.102 57.412 30.742l-130.2 213.672 1.618 1.98c19.691 24.055 30.536 54.414 30.536 85.485 0 74.525-60.624 135.152-135.152 135.152-74.525 0-135.156-60.628-135.156-135.152s60.631-135.156 135.156-135.156c7.42 0 14.84 0.607 22.119 1.803l-62.062 101.853c-9.678 15.88-5.509 36.923 9.493 47.905l7.254 5.314-1.564-8.858c-1.376-7.814 0.123-15.819 4.223-22.552zM623.301 273.001h-238.453l-0.816 2.485c-18.264 55.588-69.85 92.934-128.361 92.934-74.521 0-135.152-60.628-135.152-135.152s60.631-135.156 135.152-135.156c54.562 0 104.096 33.31 124.886 83.411h-124.882c-19.919 0-36.124 16.205-36.124 36.124 0 2.149 0.213 4.386 0.632 6.647l1.9 10.191 4.848-9.161c5.657-10.696 16.671-17.343 28.744-17.343h364.986c-1.214 8.464-1.824 16.946-1.824 25.287 0 13.395 1.499 26.739 4.465 39.733z" />
<glyph unicode="&#xe60a;" d="M620.371 795.872c-91.229 0-165.186-73.957-165.186-165.186v-69.937c0.007-91.229 73.961-211.794 165.186-211.794s165.179 120.565 165.186 211.794v69.94c0 91.229-73.957 165.182-165.186 165.182zM867.401 356.867c-20.074 16.44-49.881 27.939-92.988 35.178-42.211-58.063-96.86-90.051-154.042-90.051-57.185 0-111.834 31.985-154.042 90.051-43.111-7.239-72.917-18.741-92.991-35.178-37.118-30.399-44.382-82.577-44.382-162.433 0-37.378 45.155-61.841 83.039-75.789 53.786-19.807 129.737-31.165 208.376-31.165 78.643 0 154.587 11.358 208.38 31.165 37.876 13.948 83.032 38.415 83.032 75.789 0 79.857-7.257 132.035-44.382 162.433zM408.321 556.863c-5.137-19.388-14.392-39.433-26.378-56.090-17.979-24.987-39.040-39.321-57.777-39.321-18.734 0-39.795 14.334-57.777 39.321-18.759 26.075-30.879 60.461-30.883 87.605v57.423c0 48.887 39.773 88.66 88.66 88.66 42.583 0 78.242-30.178 86.731-70.269 3.616 22.683 10.863 44.155 21.086 63.853-24.781 32.436-63.843 53.377-107.817 53.377-74.9 0-135.622-60.718-135.622-135.622v-57.423c0.004-28.809 9.013-61.166 24.33-90.101-112.585-16.097-130.015-65.447-130.015-170.829 0-58.973 94.393-91.868 199.735-98.71 0.726 19.327 2.204 37.298 4.779 53.963-37.172 2.323-71.606 8.099-99.461 16.856-37.439 11.769-49.44 24.821-50.867 28.058 0.014 65.941 8.323 86.269 20.797 96.485 14.854 12.163 45.383 20.013 92.565 23.719 21.238-20.226 46.554-33.325 73.759-33.325 27.231 0 52.565 13.12 73.806 33.368 14.258-1.105 26.934-2.608 38.18-4.476-17.257 36.981-27.173 76.764-27.83 113.478z" />
<glyph unicode="&#xe60b;" d="M470.555 327.954c-34.783-34.732-80.777-53.799-129.905-53.799-49.019 0-95.224 19.065-129.743 53.799-71.748 71.59-71.748 187.951 0 259.54 34.521 34.783 80.777 53.799 129.743 53.799 49.127 0 95.118-19.013 129.905-53.799 34.732-34.521 53.799-80.724 53.799-129.798 0-49.019-19.013-95.118-53.799-129.743zM565.301 335.179c20.342 37.175 31.227 78.972 31.227 122.521 0 68.348-26.604 132.558-74.99 180.836-48.276 48.328-112.483 74.882-180.887 74.882-68.244 0-132.507-26.554-180.887-74.882-99.737-99.631-99.737-261.982 0-361.723 48.384-48.223 112.643-74.776 180.887-74.776 43.604 0 85.347 10.886 122.572 31.227l136.063-135.905c14.071-14.125 32.501-21.135 50.987-21.135s36.909 7.064 50.987 21.135c28.2 28.095 28.2 73.876 0 101.971l-135.959 135.851z" horiz-adv-x="724" />
<glyph unicode="&#xe60c;" d="M587.69 266.12c-6.541 6.541-15.17 10.127-24.344 10.127s-17.848-3.59-24.344-10.127c-13.442-13.399-13.442-35.29 0-48.73l29.114-29.114c6.541-6.541 15.17-10.080 24.387-10.080 9.176 0 17.848 3.546 24.344 10.127 13.442 13.399 13.442 35.243 0 48.686l-29.159 29.114zM164.273 592.121c6.541-6.541 15.17-10.127 24.387-10.127 9.176 0 17.893 3.59 24.344 10.080 6.541 6.497 10.080 15.125 10.080 24.344 0 9.221-3.546 17.893-10.080 24.387l-29.114 29.114c-6.541 6.497-15.17 10.080-24.387 10.080-9.176 0-17.848-3.59-24.344-10.080-13.442-13.442-13.442-35.29 0-48.73l29.114-29.069zM563.164 582.127c9.176 0 17.848 3.59 24.344 10.080l29.159 29.114c13.442 13.399 13.442 35.29 0 48.73-6.541 6.497-15.17 10.080-24.344 10.080-9.221 0-17.893-3.59-24.387-10.080l-29.114-29.114c-13.442-13.442-13.442-35.29 0-48.73 6.497-6.541 15.17-10.080 24.344-10.080zM151.145 429.029c0 18.982-15.442 34.424-34.471 34.424h-46.824c-18.982 0-34.471-15.442-34.471-34.424s15.487-34.471 34.471-34.471h46.824c19.030 0 34.471 15.487 34.471 34.471zM682.068 463.455h-46.824c-19.030 0-34.471-15.487-34.471-34.471s15.442-34.471 34.471-34.471h46.824c19.030 0 34.471 15.442 34.471 34.471s-15.442 34.471-34.471 34.471zM376.138 653.891c19.030 0 34.471 15.442 34.471 34.471v46.872c0 18.982-15.442 34.471-34.471 34.471-18.982 0-34.471-15.442-34.471-34.471v-46.872c0-18.982 15.487-34.471 34.471-34.471zM376.138 204.309c-18.982 0-34.471-15.487-34.471-34.519v-46.824c0-18.982 15.487-34.471 34.471-34.471 19.030 0 34.471 15.487 34.471 34.471v46.824c0 19.030-15.442 34.519-34.471 34.519zM496.857 549.748c-33.111 33.111-76.439 49.64-119.812 49.64s-86.748-16.532-119.812-49.64c-46.551-46.506-60.357-113.405-41.419-171.995l-77.799-77.754c-9.221-9.267-12.49-22.937-8.446-35.336l13.943-42.465c3.406-10.443 11.625-18.711 22.117-22.117l42.42-13.899c3.546-1.133 7.173-1.727 10.764-1.727 9.083 0 17.939 3.546 24.529 10.217l76.029 75.937c18.53-6.678 38.060-10.080 57.632-10.080 43.327 0 86.7 16.532 119.812 49.64 66.216 66.126 66.264 173.447 0.043 239.575zM455.073 351.911c-20.845-20.845-48.552-32.292-78.024-32.292s-57.182 11.444-78.024 32.292c-20.845 20.845-32.337 48.552-32.337 78.024 0 29.475 11.49 57.182 32.337 78.024 20.845 20.845 48.506 32.337 78.024 32.337 29.43 0 57.182-11.49 78.024-32.337 20.845-20.799 32.337-48.506 32.337-77.98 0-29.524-11.49-57.225-32.337-78.075z" horiz-adv-x="724" />
<glyph unicode="&#xe60d;" d="M323.782 794.856c-6.136-0.123-12.156-2.295-17.357-5.785s-9.26-6.831-12.398-10.745c-3.138-3.915-6.095-9.551-9.092-15.704-2.998-6.154-5.393-11.346-7.439-16.532-2.046-5.184-4.758-10.695-7.439-16.532s-4.917-11.104-7.439-14.879c-1.905-2.503-4.81-5.81-8.266-9.919s-6.061-7.607-8.266-10.745c-2.205-3.138-4.325-5.745-4.96-8.266-0.635-2.838 0.384-6.895 1.653-12.398 1.27-5.502 1.144-9.877 0.827-12.398-1.253-11.955-4.992-27.035-12.398-45.46-7.405-18.426-14.686-31.493-20.664-39.674-1.253-1.569-4.241-5.226-9.919-10.745-5.678-5.518-9.493-10.787-10.745-14.879-1.269-1.587-1.111-5.994 0-13.225s1.144-12.039 0.827-14.879c-1.253-10.703-4.96-24.521-11.572-42.153-6.613-17.632-13.225-32.47-19.836-43.808-0.951-1.887-3.858-5.385-8.266-10.745s-6.487-9.769-7.439-13.225c-0.635-2.523-0.794-6.929 0-13.225 0.794-6.295 0.951-10.895 0-14.051-2.522-11.972-7.948-26.142-14.879-42.981-6.929-16.839-13.417-31.834-20.664-43.808-1.887-3.156-4.95-6.496-8.266-10.745s-5.551-8.416-7.439-11.572c-1.887-3.156-3.498-6.464-4.133-9.919-0.317-1.887 0.384-4.844 1.653-9.092 1.269-4.249 1.97-7.397 1.653-9.919-0.3-4.408-1.527-10.11-2.479-17.357-0.951-7.249-0.827-11.971-0.827-13.225-6.929-18.902-6.738-38.423 0.827-59.51 8.817-24.562 24.596-45.152 47.113-61.99 22.518-16.839 46.011-25.623 70.258-25.623h435.592c20.472 0 39.75 6.963 57.859 20.664s30.391 30.265 36.369 50.42l129.769 428.154c6.929 22.677 4.325 43.215-8.266 61.166h-0.827c-6.613 8.817-15.303 15.112-27.276 19.836 0.635-11.020-0.276-19.519-2.479-26.45l-68.604-224.823c12.385-7.456 24.879-14.904 37.195-22.317-12.683-24.711-35.089-43.475-61.991-59.51l-48.767-159.525c-2.522-8.183-8.032-14.953-16.532-19.836s-17.315-7.439-26.45-7.439h-435.592c-37.771 0-60.214 11.020-67.778 33.062-3.139 8.5-3.455 15.621 0 20.664 3.475 4.726 9.685 6.613 18.184 6.613h197.547c-47.549 28.634-95.012 57.576-142.167 85.962 57.532 112.156 300.38 110.971 368.643 216.556h-254.578c-4.408 0-8.032 1.962-9.919 4.96s-2.079 5.829-0.827 9.919l9.919 30.583c1.269 4.090 4.333 7.747 8.266 10.745s7.482 4.133 11.572 4.133h287.64c4.408 0 7.205-1.134 9.092-4.133s2.079-6.653 0.827-10.745l-9.919-30.583c-1.27-4.090-3.507-6.921-7.439-9.919s-8.307-4.96-12.398-4.96h-10.745c34.813-20.957 69.914-41.711 104.972-62.818l84.309 277.721c6.948 23.293 3.515 43.532-9.092 61.166s-30.432 26.45-53.726 26.45h-359.55c-4.090 0-11.998-1.294-23.97-4.133l0.827 0.827c-8.817 1.85-16.18 3.428-22.317 3.306zM384.946 674.181h286.813c4.408 0 7.205-1.962 9.092-4.96s2.905-6.653 1.653-10.745l-9.919-29.755c-1.27-4.090-4.333-7.747-8.266-10.745s-7.482-4.96-11.572-4.96h-287.64c-4.408 0-7.205 1.962-9.092 4.96s-2.079 6.653-0.827 10.745l9.919 29.755c1.27 4.090 3.507 7.747 7.439 10.745s8.307 4.96 12.398 4.96zM662.668 282.393c-73.889-28.296-158.529-50.063-209.118-92.573h114.065c29.289 0 49.159 5.669 60.339 16.532s22.551 35.267 33.89 72.737l0.827 3.306zM576.707 526.226c-7.484-1.103-13.716-3.425-19.011-6.613-4.731-2.849-8.701-6.804-10.745-10.745-9.443-18.44-25.433-34.23-49.593-48.767-32.269-19.419-74.559-34.040-119.025-49.593-47.195-16.47-95.592-33.807-135.554-57.859-33.958-20.473-57.534-42.994-71.084-69.43-4.565-8.925-0.178-19.020 10.745-25.623l208.29-125.635c10.339-6.227 25.479-8.722 39.674-6.613 7.484 1.13 13.716 3.425 19.011 6.613 4.731 2.849 8.701 6.778 10.745 10.745 9.464 18.44 25.411 34.23 49.593 48.767 32.249 19.419 74.518 34.054 119.025 49.593 47.154 16.494 95.614 33.807 135.554 57.859 33.958 20.447 57.513 42.993 71.084 69.429 4.545 8.913 0.157 19.057-10.745 25.623l-208.29 125.636c-10.339 6.227-25.479 8.722-39.674 6.613zM587.452 501.429c69.042-41.56 139.228-84.062 208.291-125.636-59.265-115.47-316.032-110.155-375.255-225.649-69.042 41.574-139.249 84.075-208.291 125.636 59.245 115.494 316.052 110.155 375.255 225.649zM577.92 339.615c-6.796 3.426-13.633 5.762-20.512 6.917-6.837 1.155-13.676 1.62-20.596 1.318-6.837-0.315-13.841-1.256-20.846-2.874-7.004-1.644-14.050-3.426-21.138-5.499-11.194 7.744-22.389 15.403-33.583 22.506 5.044 2.748 9.943 4.142 14.654 4.243 4.731 0.124 9.276-0.174 13.592-0.829 4.399-0.666 8.423-1.23 12.133-1.67 3.753-0.439 7.003 0.049 9.86 1.494 3.023 1.57 4.692 3.602 4.919 6.050 0.209 2.472-1.335 4.882-4.774 7.229-4.399 3.038-9.694 4.883-16.051 5.562-6.274 0.666-12.695 0.615-19.387-0.264-6.588-0.904-12.863-2.397-18.803-4.507s-10.715-4.268-14.259-6.377c-1.354 0.778-2.712 1.544-4.065 2.31-1.501 0.829-3.377 1.281-5.629 1.256-2.272 0-4.148-0.59-5.691-1.67-1.501-1.055-2.188-2.284-1.917-3.578 0.209-1.343 1.105-2.371 2.648-3.163 1.354-0.691 2.712-1.367 4.065-2.084-5.337-3.879-9.735-8.16-13.196-12.678-3.503-4.531-5.587-9.025-6.357-13.38-0.813-4.393-0.041-8.411 2.188-12.137 2.231-3.754 6.357-6.942 12.383-9.955 9.818-4.908 21.368-6.993 34.77-6.527 13.363 0.489 27.767 2.888 43.257 7.896 12.299-8.559 24.64-17.059 36.961-24.955-5.211-2.649-9.777-4.167-13.8-4.657-4.024-0.514-7.609-0.465-10.861 0.124-3.252 0.615-6.274 1.494-9.048 2.624-2.773 1.155-5.503 2.133-8.234 2.937-2.689 0.803-5.462 1.256-8.297 1.281s-5.858-0.803-9.192-2.523c-3.419-1.794-5.128-3.879-5.128-6.227 0-2.335 1.791-4.707 5.295-7.105 3.543-2.397 8.151-4.418 13.717-6.013 5.567-1.595 11.861-2.599 18.783-2.874 6.921-0.288 14.217 0.339 21.91 2.059 7.735 1.695 15.385 4.758 22.93 9.315 3.626-2.133 7.296-4.167 10.945-6.125 1.542-0.803 3.419-1.205 5.69-1.105 2.188 0.049 4.107 0.666 5.629 1.769 1.542 1.13 2.188 2.371 1.96 3.678-0.209 1.318-1.105 2.335-2.606 3.063-3.67 1.769-7.339 3.627-10.986 5.586 6.233 4.607 11.236 9.465 14.947 14.272 3.709 4.833 5.9 9.489 6.628 13.807 0.729 4.344-0.124 8.26-2.479 11.811-2.335 3.603-6.484 6.69-12.423 9.666zM461.369 331.105c-5.9-0.151-11.048 1.029-15.55 3.651-1.918 1.105-3.252 2.447-4.065 4.042-0.855 1.595-1.147 3.339-0.813 5.248 0.292 1.882 1.23 3.854 2.856 5.837 1.542 1.984 3.835 3.967 6.754 5.886 10.569-6.327 21.118-13.267 31.686-20.447-8.005-2.649-14.968-4.067-20.868-4.218zM559.701 305.974c-1.876-2.084-4.024-3.943-6.546-5.562-11.697 7.105-23.369 14.912-35.020 22.921 2.982 0.803 6.108 1.644 9.484 2.498s6.754 1.418 10.132 1.769c3.46 0.315 6.88 0.226 10.299-0.264 3.377-0.514 6.588-1.62 9.567-3.364 2.939-1.769 4.794-3.603 5.544-5.586 0.813-2.008 0.856-4.042 0.292-6.125-0.605-2.097-1.835-4.18-3.753-6.289zM476.921 248.234c4.107 1.997 10.152 1.896 13.925-0.414 4.086-2.447 4.086-6.452 0-8.9-0.334-0.201-0.687-0.339-1.063-0.514l0.041-0.024c-13.196-6.038-24.036-11.473-35.729-18.515-10.569-6.351-20.116-13.042-28.371-19.833l-13.319-10.983c-0.417-0.451-0.916-0.865-1.542-1.255-4.086-2.447-10.737-2.447-14.801 0-3.543 2.134-3.981 5.423-1.377 7.87l-0.041 0.024 14.259 11.725c8.901 7.331 19.136 14.511 30.456 21.327 11.779 7.116 24.494 13.47 37.524 19.494h0.043zM553.238 429.803c10.549 6.351 20.075 13.017 28.35 19.846l13.842 11.423c0.5 0.54 1.063 1.079 1.835 1.544 4.107 2.473 10.756 2.473 14.863 0 3.898-2.36 4.065-6.088 0.521-8.586l0.042-0.024-14.259-11.774c-8.921-7.331-19.137-14.485-30.457-21.302-11.779-7.091-24.475-13.469-37.501-19.494l-0.084 0.024c-4.148-2.297-10.589-2.247-14.571 0.174-4.107 2.472-4.107 6.502 0 8.974 0.729 0.465 1.585 0.791 2.439 1.079 12.259 5.636 24.077 11.547 34.981 18.113z" horiz-adv-x="960" />
<glyph unicode="&#xe60e;" d="M153.324 96.598h131.775v131.775h-131.775v-131.775zM314.383 96.598h146.417v131.775h-146.417v-131.775zM153.324 257.658h131.775v146.417h-131.775v-146.417zM314.383 257.658h146.417v146.417h-146.417v-146.417zM153.324 433.358h131.775v131.775h-131.775v-131.775zM490.085 96.598h146.417v131.775h-146.417v-131.775zM314.383 433.358h146.417v131.775h-146.417v-131.775zM665.787 96.598h131.775v131.775h-131.775v-131.775zM490.085 257.658h146.417v146.417h-146.417v-146.417zM329.025 652.985v131.775q0 5.949-4.348 10.295t-10.295 4.348h-29.282q-5.949 0-10.295-4.348t-4.348-10.295v-131.775q0-5.949 4.348-10.295t10.295-4.348h29.282q5.949 0 10.295 4.348t4.348 10.295zM665.787 257.658h131.775v146.417h-131.775v-146.417zM490.085 433.358h146.417v131.775h-146.417v-131.775zM665.787 433.358h131.775v131.775h-131.775v-131.775zM680.427 652.985v131.775q0 5.949-4.348 10.295t-10.295 4.348h-29.282q-5.949 0-10.295-4.348t-4.348-10.295v-131.775q0-5.949 4.348-10.295t10.295-4.348h29.282q5.949 0 10.295 4.348t4.348 10.295zM856.13 682.269v-585.671q0-23.793-17.386-41.182t-41.182-17.386h-644.238q-23.792 0-41.181 17.386t-17.386 41.182v585.671q0 23.793 17.386 41.181t41.181 17.386h58.568v43.924q0 30.198 21.505 51.702t51.702 21.505h29.282q30.198 0 51.703-21.505t21.505-51.702v-43.924h175.702v43.924q0 30.198 21.505 51.702t51.703 21.505h29.282q30.198 0 51.702-21.505t21.505-51.702v-43.924h58.568q23.793 0 41.182-17.386t17.386-41.181z" horiz-adv-x="951" />
<glyph unicode="&#xe60f;" d="M402.381 220.467l-41.472-41.165c-35.942-35.584-94.362-35.635-130.253 0-17.254 17.152-26.726 39.834-26.726 64.051s9.523 46.95 26.726 64.102l152.576 151.398c31.59 31.386 91.085 77.517 134.451 34.509 19.917-19.763 52.070-19.61 71.782 0.256 19.763 19.866 19.661 52.019-0.256 71.782-73.677 73.114-182.63 59.597-277.504-34.509l-152.576-151.398c-36.557-36.352-56.73-84.685-56.73-136.141 0-51.405 20.173-99.738 56.781-136.090 37.683-37.427 87.142-56.064 136.602-56.064s99.021 18.637 136.704 56.064l41.472 41.216c19.917 19.763 20.019 51.917 0.256 71.731-19.763 19.866-51.917 19.968-71.834 0.256zM864.819 808.499c-79.155 78.541-189.798 82.79-263.117 10.086l-51.661-51.251c-19.917-19.763-20.070-51.866-0.307-71.782 19.814-19.917 51.917-20.019 71.782-0.256l51.661 51.251c37.939 37.683 87.654 22.067 120.115-10.086 17.254-17.101 26.726-39.885 26.726-64.051 0-24.218-9.523-46.95-26.726-64.051l-162.816-161.485c-74.394-73.83-109.363-39.219-124.262-24.422-19.917 19.763-52.019 19.61-71.731-0.256-19.763-19.917-19.661-52.070 0.256-71.782 34.15-33.894 73.216-50.688 114.074-50.688 50.074 0 102.963 25.19 153.242 75.11l162.765 161.485c36.608 36.301 56.781 84.634 56.781 136.038s-20.173 99.789-56.781 136.141z" />
<glyph unicode="&#xe610;" d="M627.866 329.318c0 0 361.421 260.762 321.331 559.258-0.922 6.554-3.072 10.854-5.734 13.773-2.816 2.714-7.014 4.966-13.466 5.888-291.686 40.909-546.509-328.909-546.509-328.909-221.082 26.522-205.005-17.613-305.869-259.84-19.302-46.182 11.981-62.106 46.285-49.101 34.304 12.902 110.029 41.523 110.029 41.523l132.557-135.629c0 0-27.955-77.466-40.602-112.538-12.646-35.174 2.867-67.174 48.026-47.462 236.749 103.27 279.859 86.835 253.952 313.037zM679.475 632.218c-30.618 31.334-30.618 82.125 0 113.459 30.618 31.283 80.23 31.283 110.848 0 30.669-31.283 30.669-82.125 0-113.459-30.566-31.386-80.23-31.386-110.848 0z" />
<glyph unicode="&#xe611;" d="M870.4 921.6h-460.8c-56.32 0-101.376-46.080-101.376-102.4v-153.6h101.376v153.6h460.8v-716.8h-460.8v102.4h-101.376v-102.4c0-56.32 45.056-102.4 101.376-102.4h460.8c56.32 0 102.4 46.080 102.4 102.4v716.8c0 56.32-46.080 102.4-102.4 102.4zM512 235.52l204.8 199.68-204.8 199.68v-122.88h-460.8v-153.6h460.8v-122.88z" />
<glyph unicode="&#xe612;" d="M856.422 315.392c-43.213-69.837-180.992-120.883-344.422-120.883-163.328 0-301.21 51.046-344.371 120.883-9.165 14.797-14.029 6.861-14.029-0.461 0-7.373 0-102.502 0-102.502 0-99.277 160.461-202.189 358.4-202.189s358.4 102.912 358.4 202.189c0 0 0 95.13 0 102.502 0 7.322-4.915 15.258-13.978 0.461zM856.934 577.28c-42.445-61.747-180.838-107.008-344.934-107.008s-302.49 45.261-344.934 107.008c-8.806 12.749-13.466 5.837-13.466 0.051s0-120.627 0-120.627c0-90.266 160.461-163.379 358.4-163.379s358.4 73.114 358.4 163.379c0 0 0 114.842 0 120.627s-4.71 12.698-13.466-0.051zM512 911.36c-197.939 0-358.4-60.314-358.4-134.758v-64.461c0-78.95 160.461-142.95 358.4-142.95s358.4 64 358.4 142.95v64.41c0 74.496-160.461 134.81-358.4 134.81z" />
<glyph unicode="&#xe613;" d="M173.517 567.706l56.422-497.101c3.021-23.603 116.992-101.222 282.061-101.325 165.069 0.102 279.091 77.722 282.112 101.325l56.422 497.101c-86.221-48.23-215.091-71.066-338.534-71.066s-252.314 22.835-338.483 71.066zM674.15 874.906l-43.981 48.794c-16.947 24.115-35.379 28.621-71.27 28.621h-93.798c-35.84 0-54.272-4.506-71.27-28.621l-43.93-48.794c-131.584-22.989-227.021-83.968-227.021-128.922v-8.755c0-79.155 174.182-143.36 389.12-143.36s389.12 64.205 389.12 143.36v8.755c0 44.954-95.386 105.933-226.97 128.922zM617.933 760.883l-64.102 68.557h-83.661l-64.102-68.557h-87.040c0 0 95.334 113.664 108.083 129.075 9.728 11.776 19.712 16.282 32.614 16.282h104.602c12.902 0 22.835-4.506 32.614-16.282 12.698-15.411 108.083-129.075 108.083-129.075h-87.091z" />
<glyph unicode="&#xe614;" d="M898.304 180.838l-193.485 193.485c29.184 47.974 45.978 104.192 45.978 164.454 0 174.899-151.603 326.502-326.554 326.502-174.899 0-316.723-141.824-316.723-316.723 0-174.95 151.552-326.554 326.502-326.554 58.163 0 112.64 15.77 159.488 43.162l194.509-194.56c19.098-19.046 49.92-19.046 68.915 0l48.282 48.23c18.995 19.046 12.083 43.008-6.912 62.003zM205.005 548.557c0 121.088 98.15 219.29 219.238 219.29 121.139 0 229.069-107.93 229.069-229.069s-98.15-219.29-219.29-219.29-229.018 107.93-229.018 229.069z" />
<glyph unicode="&#xe615;" d="M847.923 796.774c-73.83 73.882-129.28 62.822-129.28 62.822l-554.291-554.291-51.712-243.866 243.866 51.712 554.24 554.24c0 0 11.11 55.45-62.822 129.382zM341.965 142.49l-83.098-17.92c-8.038 15.002-17.715 30.003-35.379 47.718-17.664 17.664-32.717 27.29-47.718 35.328l17.971 83.149 24.013 24.013c0 0 45.261-0.922 96.307-51.968 51.098-51.098 52.019-96.358 52.019-96.358l-24.115-23.962z" />
</font>
</defs>
</svg>
